imdb
rating

8.1
Bates Motel

Bates Motel (2013)

Drama, Mystery

Full description

Bates Motel S04E01 A Danger to Himself and Others 1080p WEB-DL DD5.1 H.264-RARBG[Phr0stY]

Size 1.74 GB   33 seeders     Added 2016-03-10 00:12:02

Video
ID : 1
Format : AVC
Format/Info : Advanced Video Codec
Format profile : High@L4.0
Format settings, CABAC : Yes
Format settings, ReFrames : 4 frames
Codec ID : V_MPEG4/ISO/AVC
Duration : 42mn 35s
Bit rate : 4 956 Kbps
Width : 1 920 pixels
Height : 1 080 pixels
Display aspect ratio : 16:9
Frame rate mode : Constant
Frame rate : 23.976 fps
Color space : YUV
Chroma subsampling : 4:2:0
Bit depth : 8 bits
Scan type : Progressive
Bits/(Pixel*Frame) : 0.100
Stream size : 1.47 GiB (91%)
Title : Bates.Motel.S04E01.1080p.WEB-DL.DD5.1.H.264-RARBG
Language : English
Default : Yes
Forced : No
Color primaries : BT.709
Transfer characteristics : BT.709
Matrix coefficients : BT.709
Color range : Limited
Audio
ID : 2
Format : AC-3
Format/Info : Audio Coding 3
Mode extension : CM (complete main)
Format settings, Endianness : Big
Codec ID : A_AC3
Duration : 42mn 35s
Bit rate mode : Constant
Bit rate : 384 Kbps
Channel(s) : 6 channels
Channel positions : Front: L C R, Side: L R, LFE
Sampling rate : 48.0 KHz
Bit depth : 16 bits
Compression mode : Lossy
Stream size : 117 MiB (7%)
Title : Bates.Motel.S04E01.1080p.WEB-DL.DD5.1.H.264-RARBG
Language : English
Default : Yes
Forced : No
Text
ID : 3
Format : UTF-8
Codec ID : S_TEXT/UTF8
Codec ID/Info : UTF-8 Plain Text
Title : English
Language : English
Default : No
Forced : No
Screenshots:
Bates.Motel.S04E01.1080p.WEB-DL.DD5.1.H.264-RARBG/Bates.Motel.S04E01.1080p.WEB-DL.DD5.1.H.264-RARBG.mkv 1.74 GB
Bates.Motel.S04E01.1080p.WEB-DL.DD5.1.H.264-RARBG/English.srt 52.863 KB
Bates.Motel.S04E01.1080p.WEB-DL.DD5.1.H.264-RARBG/RARBG.com.txt 34 B
Gathering some info...

Register and log in Isohunt and see no captcha anymore!

4000 symbols left
Hash 1eb52e45e1a4c552a3df619185db1740e8222b4d

Related torrents for "Bates Motel S04E01 A Danger to Himself and Others 1080p WEB-DL DD5.1 H.264-RARBG[Phr0stY]"

Torrent search:

episode 01 season 04 fullhd web-dl